Şimdi Ara

4k media player yardimi

Koronavirüs Özel
Daha Fazla
Bu Konudaki Kullanıcılar: Daha Az
1 Misafir - 1 Masaüstü
7
Cevap
0
Favori
388
Tıklama
Sayfaya Git:
Sayfa:
1
Giriş
Mesaj
  • Teğmen
    164 Mesaj
    S.a

    Samsung hd tv de kullanmak uzere sadece film izlemek amacli x265 filmleri izlemek icin 4k media player almak istiyorum. Butce 300 400 tl. Neden x265 istedigimi az cok herkes bilir sanirim ama yinede aciklayalim. X 265 ler normal mkv x264 lere gore daha az yer kaplayip daha guzel goruntu veriyor bende x264 ten cikip 265 e gecmek istiyorum. Mevcut tv 4k ve x265 formati kendi icindeki media playerdan oynatmiyor bende tv yerine media palyer almak istiyorum mevcut tv bana suan icin yetiyor tv yenilemeye gerek yok.

    1 2 buldum ama bu 4k oynatici islerine yeni sardim anlamiyorum. 2 tane lunk verip almak niyetinde olduklarimu gostereyim tabi varsa almami onereceginiz daha uygun fiyata usimi gorecek oda alinabilir.

    http://m.n11.com/dark-evobox-4k-60hz-quad-core-android-50-mini-pc-dk-pc-and4k60-P35435528

    http://m.n11.com/xiaomi-mi-box-4k-ultra-hd-android-tv-P188665007



    < Bu ileti mobil sürüm kullanılarak atıldı >



    |
    |




  • Binbaşı
    1156 Mesaj
    mesela bu konuda adı geçen android tv box'lar x265 hevc desteklidir. yurt dışı sitelerden 35-70 dolar civarı alabileceğiniz cihazlar. yine de siz bilirsiniz. aliexpress, gearbest , bangood vb. sitelerden alan kişi çoktur.
    |
    |
    _____________________________
    Hayat bir gündür, o da bugündür.
  • Teğmen
    164 Mesaj
    Disardan alsak turkce olacakmi acaba?



    < Bu ileti mobil sürüm kullanılarak atıldı >
    _____________________________
  • Binbaşı
    1156 Mesaj

    android yüklü ve türkçe olur. satıldığı sitedeki fotolardan ve açıklamalardan da takip edebilirsiniz.
    |
    |
    malkoc24 kullanıcısının, bahsedilen mesajını gör
    _____________________________
    Hayat bir gündür, o da bugündür.
  • Yarbay
    11231 Mesaj
    X265 li MKV filmler var mı?
    _____________________________
    Profili gizli olan bana da özel mesaj atmasin.
  • Yüzbaşı
    520 Mesaj
    quote:

    Orijinalden alıntı: TiSKE

    X265 li MKV filmler var mı?

    bu sorunun yanıtı merak konusu doğrusu. acaba x265 li mkv var mı gerçekten
    |
    |
    _____________________________
    THINK BEFORE PRINT
  • Yüzbaşı
    638 Mesaj

    2 gün önce indirdigim iki filmin adini ve bilgilerini paylasiyorum sanirim sorunuzun cevabidir.

    Unforgiven.1992.2160p.UHD.BluRay.x265-DEPTH.mkv
    King.Kong.2005.EXTENDED.2160p.BluRay.x265.10bit.HDR.DTS-X.7.1-SWTYBLZ.mkv

    King Kong:
    Format : Matroska
    Format version : Version 4 / Version 2
    File size : 34.6 GiB
    Duration : 3 h 20 min
    Overall bit rate : 24.8 Mb/s
    Movie name : King.Kong.2005.EXTENDED.2160p.BluRay.x265.10bit.HDR.DTS-X.7.1-SWTYBLZ
    Encoded date : UTC 2017-12-06 16:57:25
    Writing application : mkvmerge v18.0.0 ('Apricity') 64-bit
    Writing library : libebml v1.3.5 + libmatroska v1.4.8
    Cover : Yes
    Attachments : cover.jpg

    Video
    ID : 1
    Format : HEVC
    Format/Info : High Efficiency Video Coding
    Format profile : Main 10@L5.1@High
    Codec ID : V_MPEGH/ISO/HEVC
    Duration : 3 h 20 min
    Bit rate : 16.7 Mb/s
    Width : 3 840 pixels
    Height : 1 632 pixels
    Display aspect ratio : 2.35:1
    Frame rate mode : Constant
    Frame rate : 23.976 (24000/1001) FPS
    Color space : YUV
    Chroma subsampling : 4:2:0 (Type 2)
    Bit depth : 10 bits
    Bits/(Pixel*Frame) : 0.111
    Stream size : 23.3 GiB (67%)

    Unforgiven:
    Format : Matroska
    Format version : Version 4 / Version 2
    File size : 23.2 GiB
    Duration : 2 h 10 min
    Overall bit rate : 25.4 Mb/s
    Encoded date : UTC 2017-12-07 03:55:39
    Writing application : mkvmerge v18.0.0 ('Apricity') 64-bit
    Writing library : libebml v1.3.5 + libmatroska v1.4.8

    Video
    ID : 1
    Format : HEVC
    Format/Info : High Efficiency Video Coding
    Format profile : Main 10@L5.1@High
    Codec ID : V_MPEGH/ISO/HEVC
    Duration : 2 h 10 min
    Bit rate : 20.5 Mb/s
    Width : 3 840 pixels
    Height : 1 600 pixels
    Display aspect ratio : 2.40:1
    Frame rate mode : Constant
    Frame rate : 23.976 (24000/1001) FPS
    Color space : YUV
    Chroma subsampling : 4:2:0 (Type 2)
    Bit depth : 10 bits
    Bits/(Pixel*Frame) : 0.139
    Stream size : 18.7 GiB (81%)



    < Bu mesaj bu kişi tarafından değiştirildi yabanci_ch -- 13 Aralık 2017; 5:13:10 >
    |
    |
    Bahsedilenler: TiSKE , dravdan
    _____________________________




Sayfaya Git:
Sayfa:
1
Reklamlar
kolayoto.com
emek server
SEO
bankalar.org
Media Sözlük
Bu sayfanın
Mobil sürümü
Mini Sürümü

BR3
0,359
1.2.165

Reklamlar
- x
Bildirim
mesajınız kopyalandı (ctrl+v) yapıştırmak istediğiniz yere yapıştırabilirsiniz.