Şimdi Ara

WD Elements Play 1TB FULL HD Media Oynatıcı Sorunu

Daha Fazla
Bu Konudaki Kullanıcılar: Daha Az
2 Misafir - 2 Masaüstü
5 sn
1
Cevap
0
Favori
674
Tıklama
Daha Fazla
İstatistik
  • Konu İstatistikleri
  • Son Yorum 10 yıl
  • Cevaplayan Üyeler 1
  • Konu Sahibinin Yazdıkları 1
  • Son 1 Saatteki Mesajlar 1
  • Konuya En Çok Yazanlar
  • tg04 (1 mesaj)
  • @
0 oy
Öne Çıkar
Tüm Forumlar >> Ev Elektroniği ve Elektrikli Ev Aletleri >> Medya Oynatıcılar >> WD Elements Play 1TB FULL HD Media Oynatıcı Sorunu
Sayfaya Git:
Sayfa:
1
Giriş
Mesaj
  • Teğmen
    166 Mesaj
    Konu Sahibine Özel
    Selam Arkadaşlar

    Yaklaşık 2 hafta önce aşağıdaki linkteki ürünü aldım.Desteklenen formatlar aşağıdaki gibi belirtilmiş.Hesapta tüm formatları izliyebileceğim için almıştım.Ama bir kaç film edindikten sonra gördümki bazılarını oynatamıyor.İşin ilginci oynattıklarıda oynatamadıklarıda mkv.Aşağıya oynatamadığı bir filmin özelliklerini ekledim.Acaba bu filmi neden oynatamadığı konusunda bana yardımcı olabilirmisiniz.Eğer mantıklı bir açıklaması yoksa ürünü kavga etme pahasına bile olsa iade edeceğim.Az para değil 300 TL verdim hala film izliyemiyorum.

    http://www.wdc.com/tr/products/products.aspx?id=400

    Desteklenen Dosya Formatları
    Video ;
    AVI (Xvid; AVC; MPEG1/2/4);
    MPG/MPEG; VOB/ISO; MP4/MOV (MPEG4; h.264);
    MKV (h.264; x.264; AVC; MPEG1/2/4);
    TS/TP/M2TS (MPEG 1/2/4); AVC);
    FLV (yalnızca D1 çözünürlük);
    RM ya da RMVB 8/9/10
    Ses ;
    MP3; WAV/PCM/LPCM; WMA; AAC; FLAC; MKA; OGG; APE; Dolby Digital (yalnızca video dosyası içinde)
    Çalma Listesi - PLS, M3U, WPL
    Altyazı - SRT; SSA; SUB; SMI; MKS; TXT

    Not
    1920x1080p24, 1920x1080i30 veya 1280x720p60 çözünürlüğe kadar MPEG2 MP@HL.
    MPEG4.2 ASP@L5, çözünürlük en çok 1280x720p30'dur ve genel hareket eşleştirmesi desteği içermez.
    WMV9/VC-1 MP@HL, en çok 1280x720p60 veya 1920x1080p24 çözünürlük. VC-1 AP@L3, en çok 1920x1080i30, 1920x1080p24 veya 1280x720p60 çözünürlük.
    H.264 BP@L3, en çok 720x480p30 veya 720x576p25 çözünürlük.
    H.264 MP@L4.1 ve HP@4.1, en çok 1920x1080p24, 1920x1080i30 veya 1280x720p60 çözünürlük.

    Oynatamadığı filmin özellikleri


    Complete name : How.To.Train.Your.Dragon.2010.720p.BluRay.Dual.x264.mkv
    Format : Matroska
    File size : 4.37 GiB
    Duration : 1h 37mn
    Overall bit rate : 6 396 Kbps
    Encoded date : UTC 2010-10-15 20:51:59
    Writing application : mkvmerge v4.3.0 ('Escape from the Island') built on Sep 5 2010 10:30:51
    Writing library : libebml v1.0.0 + libmatroska v1.0.0

    Video
    ID : 1
    Format : AVC
    Format/Info : Advanced Video Codec
    Format profile : High@L4.1
    Format settings, CABAC : Yes
    Format settings, ReFrames : 16 frames
    Muxing mode : Container profile=Unknown@4.1
    Codec ID : V_MPEG4/ISO/AVC
    Duration : 1h 37mn
    Bit rate : 5 117 Kbps
    Width : 1 280 pixels
    Height : 544 pixels
    Display aspect ratio : 2.35:1
    Frame rate : 23.976 fps
    Color space : YUV
    Chroma subsampling : 4:2:0
    Bit depth : 8 bits
    Scan type : Progressive
    Bits/(Pixel*Frame) : 0.306
    Stream size : 3.41 GiB (78%)
    Writing library : x264 core 105 r1732 2b04482

    Audio #1
    ID : 2
    Format : AC-3
    Format/Info : Audio Coding 3
    Mode extension : CM (complete main)
    Muxing mode : Header stripping
    Codec ID : A_AC3
    Duration : 1h 37mn
    Bit rate mode : Constant
    Bit rate : 640 Kbps
    Channel(s) : 6 channels
    Channel positions : Front: L C R, Side: L R, LFE
    Sampling rate : 48.0 KHz
    Bit depth : 16 bits
    Stream size : 448 MiB (10%)
    Language : Turkish

    Audio #2
    ID : 3
    Format : AC-3
    Format/Info : Audio Coding 3
    Mode extension : CM (complete main)
    Muxing mode : Header stripping
    Codec ID : A_AC3
    Duration : 1h 37mn
    Bit rate mode : Constant
    Bit rate : 640 Kbps
    Channel(s) : 6 channels
    Channel positions : Front: L C R, Side: L R, LFE
    Sampling rate : 48.0 KHz
    Bit depth : 16 bits
    Stream size : 448 MiB (10%)
    Language : English

    Text
    ID : 4
    Format : UTF-8
    Codec ID : S_TEXT/UTF8
    Codec ID/Info : UTF-8 Plain Text
    Language : Turkish



    |
    |




Sayfaya Git:
Sayfa:
1
Reklamlar
pubg mobile uc
vp satın al
Sohbet
Bu sayfanın
Mobil sürümü
Mini Sürümü

BR2
0,203
1.2.165

Reklamlar
- x
Bildirim
mesajınız kopyalandı (ctrl+v) yapıştırmak istediğiniz yere yapıştırabilirsiniz.